<?xml version="1.0" standalone="no"?>
<!DOCTYPE svg PUBLIC "-//W3C//DTD SVG 1.1//EN" "http://www.w3.org/Graphics/SVG/1.1/DTD/svg11.dtd" >
<svg xmlns="http://www.w3.org/2000/svg">
<metadata>Generated by IcoMoon</metadata>
<defs>
<font id="icomoon" horiz-adv-x="1024">
<font-face units-per-em="1024" ascent="960" descent="-64" />
<missing-glyph horiz-adv-x="1024" />
<glyph unicode="&#x20;" horiz-adv-x="512" d="" />
<glyph unicode="&#xe900;" glyph-name="m1-light" d="M433.154 236.353c13.798-4.924 27.597-8.864 42.381-10.836v0l-18.726-68.955c-1.971-9.853-10.841-15.762-20.697-15.762-1.971 0-3.942 0-5.914 0.986-11.827 2.955-18.726 14.776-15.769 26.598v0zM591.822 238.342l18.728-68.958c2.955-11.822-3.943-23.643-15.771-26.598-1.972-0.986-3.943-0.983-5.912-0.983-8.873 0-17.742 5.909-20.7 15.759v0l-18.725 68.958c6.898 0.983 13.799 1.969 21.683 4.924 6.901 1.972 13.799 3.941 20.697 6.898v0zM338.539 305.328c8.871-11.819 19.712-21.672 31.539-30.536v0l-50.265-50.241c-4.928-3.941-9.856-5.909-15.769-5.909s-11.827 1.969-15.769 5.909c-8.87 7.881-8.87 21.672 0 30.538v0zM686.446 305.328l50.264-50.238c8.87-7.881 8.87-21.672 0-30.538-4.926-3.941-9.856-5.909-15.768-5.909-5.915 0-11.827 1.969-15.771 5.909v0l-50.266 50.241c10.841 8.864 21.683 18.717 31.541 30.536v0zM511.992 625.487c98.561 0 177.408-79.793 177.408-177.316 0-97.525-79.833-177.316-177.408-177.316-97.572 0-177.405 79.791-177.405 177.316 0 97.524 79.833 177.316 177.405 177.316zM733.757 410.698l68.992-18.717c11.827-2.957 18.725-14.776 15.768-27.584-1.969-9.85-10.841-15.762-20.697-15.762-1.972 0-3.941 0-5.912 0.986v0l-68.992 18.717c4.926 13.79 8.87 27.584 10.841 42.36v0zM290.244 410.698c0.986-6.898 2.957-13.793 3.942-20.689 1.971-6.895 3.942-13.79 6.899-20.686v0l-68.991-18.717c-1.971-0.986-3.942-0.986-5.914-0.986-8.87 0-17.741 5.909-20.698 15.762-2.957 11.822 3.942 23.64 15.77 26.598v0zM206.461 528.928c2.957 11.821 14.784 18.717 26.611 15.762v0l68.991-18.717c-4.928-13.791-8.871-27.583-10.842-42.359v0l-68.991 18.717c-11.827 2.955-18.726 14.776-15.769 26.598zM791.908 545.66c11.827 2.955 23.654-3.94 26.609-15.761 2.958-11.821-3.941-23.642-15.768-26.598v0l-68.992-18.717c-0.986 6.896-2.958 13.792-3.943 21.672-1.972 6.896-3.941 13.791-6.898 20.687v0zM705.171 671.771c7.884 8.866 21.683 8.866 30.552 0 8.87-7.881 8.87-21.672 0-30.538v0l-50.264-50.24c-8.873 10.836-19.714 20.687-30.555 30.538v0zM288.274 671.771c7.885 8.866 21.683 8.866 30.553 0v0l50.265-50.24c-10.842-9.851-21.683-19.702-30.554-30.538v0l-50.265 50.24c-8.87 7.881-8.87 21.672 0 30.538zM567.19 737.747c2.958 11.821 14.785 18.717 26.612 15.762s18.725-14.776 15.771-26.597v0l-18.728-68.957c-13.796 4.926-27.595 8.866-42.38 10.836v0zM430.197 754.517c11.827 2.955 23.654-3.94 26.611-15.761v0l18.726-68.957c-6.899-1.97-14.784-2.955-21.683-3.941-6.899-1.97-13.798-3.94-20.697-6.896v0l-18.726 68.956c-2.957 11.821 3.942 23.642 15.769 26.597z" />
<glyph unicode="&#xe901;" glyph-name="m2-search" d="M690.846 310.207l2.756-2.434 117.029-117.029c11.426-11.426 11.426-29.95 0-41.376-10.547-10.547-27.142-11.358-38.62-2.434l-2.756 2.434-117.029 117.029c-11.426 11.426-11.426 29.95 0 41.376 10.547 10.547 27.142 11.358 38.62 2.434zM438.857 755.2c129.266 0 234.057-104.791 234.057-234.057s-104.791-234.057-234.057-234.057c-129.266 0-234.057 104.791-234.057 234.057s104.791 234.057 234.057 234.057zM438.857 696.686c-96.95 0-175.543-78.593-175.543-175.543s78.593-175.543 175.543-175.543c96.95 0 175.543 78.593 175.543 175.543s-78.593 175.543-175.543 175.543z" />
<glyph unicode="&#xe902;" glyph-name="m3-pod" d="M728.625 619.84c23.388 5.988 39.375-17.208 39.375-38.364s-19.694-31.117-39.386-38.316c-0.655-0.241-1.321-0.448-1.994-0.625v0l-109.888-37.453c-14.131-5.171-20.186-10.547-21.517-12.946-0.028-0.064-0.059-0.123-0.097-0.182-1.403-2.435-5.55-12.828-0.394-44.28v0l7.127-53.998 40.161-209.677c0.369-1.585 0.678-3.215 0.937-4.872 2.929-19.441-11.668-38.328-39.388-38.328-24.123 0-34.77 16.236-39.386 38.328 0 0-7.916 42.165-18.085 86.672l-1.817 7.87c-11.028 47.271-24.21 94.542-32.826 94.542-14.838 0-42.455-140.208-49.841-179.155l-0.926-4.915c-0.604-3.227-0.93-5.014-0.93-5.014-4.616-22.093-15.26-38.328-39.386-38.328-27.645 0-42.243 18.803-39.386 38.185v0l0.282 1.523c0.1 0.599 0.21 1.188 0.333 1.764v0l39.621 211.428 7.137 54.001c1.441 8.783 5.504 33.948 0.42 46.656-1.564 3.96-4.764 8.532-16.74 13.007v0l-117.199 35.689v0.335c-19.509 7.163-38.833 17.147-38.833 38.111 0 21.169 16.001 44.329 39.387 38.329 3.34-0.849 6.627-1.882 9.847-3.096 32.346-8.964 133.459-35.364 206.237-35.364 78.318 0 189.486 30.552 212.393 37.104 1.231 0.372 2.46 0.732 3.692 1.068v0l0.517 0.156zM538.378 750.085c12.593-5.086 23.357-13.699 30.932-24.75 7.572-11.051 11.615-24.044 11.615-37.334-0.018-17.817-7.286-34.898-20.209-47.496s-30.444-19.685-48.717-19.704c-13.632 0-26.959 3.941-38.292 11.325-11.336 7.384-20.17 17.879-25.388 30.159s-6.582 25.791-3.922 38.826c2.66 13.036 9.224 25.009 18.865 34.407 9.638 9.398 21.921 15.798 35.29 18.391 13.371 2.593 27.231 1.262 39.826-3.824z" />
<glyph unicode="&#xe903;" glyph-name="m4-bracket-left" d="M616.583 213.19c-80.42 46.917-130.44 137.633-130.44 236.78s46.308 184.732 123.546 233.297c3.888 2.383 6.539 6.414 7.247 10.996s-0.353 9.347-3.182 12.829l-33.228 42.151c-4.949 6.231-13.61 7.88-20.149 3.482-100.923-65.243-161.017-178.501-161.017-302.755 0-63.228 16.084-125.355 46.484-179.601 29.517-52.414 71.583-96.397 122.132-127.371 2.474-1.465 5.302-2.198 7.954-2.198 4.596 0 9.014 2.016 12.019 5.864l33.229 42.152c2.827 3.665 4.064 8.431 3.18 13.196-0.882 4.764-3.711 8.796-7.599 10.996z" />
<glyph unicode="&#xe904;" glyph-name="m4-bracket-right" d="M463.624 752.805c-6.54 4.216-15.2 2.749-20.149-3.483l-33.228-42.157c-2.828-3.666-4.065-8.248-3.181-12.83 0.707-4.582 3.358-8.615 7.247-10.997 77.238-48.572 123.369-135.817 123.369-233.51 0-97.695-50.019-189.89-130.439-236.628-4.065-2.383-6.893-6.415-7.6-10.998-0.884-4.581 0.353-9.347 3.181-13.196l33.228-42.34c3.005-3.85 7.423-5.866 12.019-5.866 2.651 0 5.479 0.733 7.954 2.2 50.373 30.791 92.615 74.782 122.132 127.386 30.401 54.069 46.484 116.206 46.484 179.624 0 124.27-60.094 237.544-161.016 302.978z" />
<glyph unicode="&#xe905;" glyph-name="m6-arrow-down" d="M476.166 221.38c17.047-25.52 54.62-25.52 71.668 0l264.061 395.316c19.080 28.564-1.437 66.824-35.834 66.824h-528.122c-34.397 0-54.913-38.26-35.833-66.824l264.061-395.316z" />
<glyph unicode="&#xe906;" glyph-name="m7-twitter" d="M512.001 755.2c169.66 0 307.199-137.538 307.199-307.201 0-169.66-137.539-307.199-307.199-307.199-169.663 0-307.201 137.539-307.201 307.199 0 169.663 137.538 307.201 307.201 307.201zM435.944 625.983l-113.171-0.006 146.838-196.331-147.764-159.63h33.258l129.369 139.761 104.524-139.761h113.171l-155.096 207.38 137.539 148.587h-33.259l-119.144-128.711-96.266 128.711zM423.671 601.482l229.585-306.969h-51.989l-229.586 306.969h51.99z" />
<glyph unicode="&#xe907;" glyph-name="m8-youtube" d="M216.492 578.46c15.59 37.636 45.491 67.538 83.128 83.128 28.227 11.692 64.012 11.692 135.58 11.692h153.6c71.567 0 107.354 0 135.58-11.692 37.637-15.59 67.538-45.491 83.128-83.128 11.692-28.227 11.692-64.012 11.692-135.58s0-107.354-11.692-135.58c-15.59-37.637-45.491-67.538-83.128-83.128-28.227-11.692-64.013-11.692-135.58-11.692h-153.6c-71.569 0-107.353 0-135.58 11.692-37.636 15.59-67.538 45.491-83.128 83.128-11.692 28.227-11.692 64.013-11.692 135.58 0 71.569 0 107.353 11.692 135.58zM458.896 343.713l162.275 72.095c25.106 11.155 25.106 42.989 0 54.143l-162.275 72.094c-22.648 10.062-49.296-4.572-49.296-27.071v-144.189c0-22.5 26.648-37.133 49.296-27.072z" />
<glyph unicode="&#xe908;" glyph-name="m9-instagram" d="M651.636 755.2c92.543 0 167.564-75.021 167.564-167.564v-279.273c0-92.543-75.021-167.564-167.564-167.564h-279.273c-92.543 0-167.564 75.021-167.564 167.564v279.273c0 92.543 75.021 167.564 167.564 167.564h279.273zM512 587.636c-77.119 0-139.636-62.517-139.636-139.636s62.517-139.636 139.636-139.636c77.118 0 139.636 62.518 139.636 139.636s-62.518 139.636-139.636 139.636zM679.564 671.418c-30.848 0-55.855-25.007-55.855-55.855s25.006-55.855 55.855-55.855c30.848 0 55.855 25.007 55.855 55.855s-25.006 55.855-55.855 55.855z" />
<glyph unicode="&#xe909;" glyph-name="m10-linkedin" d="M819.2 378.542v-237.742h-131.691v221.824c0 55.676-19.013 93.741-66.724 93.741-36.409 0-58.027-25.609-67.57-50.409-3.522-8.842-4.368-21.149-4.368-33.605v-231.551h-131.689c0 0 1.761 375.847 0 414.574h131.725v-58.588c-0.282-0.479-0.634-0.921-0.88-1.363h0.88v1.363c17.605 28.189 48.733 68.5 118.696 68.5 86.656 0 151.62-59.251 151.62-186.56v-0.184zM279.342 755.2c-45.070 0-74.542-30.952-74.542-71.632 0-39.796 28.627-71.632 72.817-71.632h0.845c45.774 0 74.507 31.837 74.507 71.632-0.88 40.533-28.556 71.632-73.627 71.632zM212.652 140.8h131.69v414.574h-131.69v-414.574z" />
<glyph unicode="&#xe90a;" glyph-name="m11-home" d="M442.998 727.573l-179.997-144.751c-23.164-17.91-37.028-45.311-37.714-74.598l-0.008-243.677c0-68.39 55.497-123.747 123.856-123.747h53.257l4.41 0.155c29.138 2.047 52.81 24.219 57.051 52.819l0.067 0.73 0.618 2.082c0.484 2.066 0.738 4.21 0.738 6.399v85.392c0 6.328 5.227 11.542 11.774 11.542h79.886c3.166 0 6.188-1.249 8.397-3.453 2.172-2.166 3.379-5.073 3.379-8.090v-85.392c-0.121-16.341 6.38-32.243 18.038-43.957 11.619-11.674 27.399-18.228 43.848-18.228h54.502c32.722-0.085 64.218 12.857 87.468 35.987 23.289 23.169 36.389 54.658 36.389 87.512v243.269c0 28.826-12.801 56.151-34.927 74.609l-185.891 148.096c-42.607 34.214-103.721 33.108-145.144-2.699zM553.522 686.573l185.489-147.767c8.934-7.462 14.361-19.045 14.361-31.239v-243.269c0-17.929-7.157-35.133-19.912-47.822-12.796-12.73-30.173-19.87-48.284-19.823h-54.574c-1.721 0-3.358 0.68-4.541 1.869-1.143 1.149-1.769 2.679-1.758 4.256l0.001 85.598c0 17.918-7.132 35.090-19.805 47.729-12.629 12.599-29.735 19.667-47.56 19.667h-79.886l-4.424-0.143c-35.102-2.279-62.939-31.477-62.939-67.253l-0.022-79.407-0.475-2.487c-0.156-1.163-0.241-2.346-0.249-3.542-0.025-3.434-2.906-6.287-6.55-6.287h-53.257c-37.749 0-68.267 30.442-68.267 67.894v243.020c0.251 10.432 4.925 20.774 12.893 28.303l3.559 3.017 181.174 145.713c21.912 18.918 53.219 19.485 75.027 1.972z" />
<glyph unicode="&#xe90b;" glyph-name="m12-arrow-right" d="M350.667 742.346c15.688 15.82 40.374 17.037 57.447 3.651l4.1-3.651 261.12-263.314c15.688-15.82 16.895-40.713 3.62-57.929l-3.62-4.134-261.12-263.314c-16.996-17.138-44.551-17.138-61.547 0-15.688 15.82-16.895 40.713-3.62 57.929l3.62 4.134 230.312 232.282-230.312 232.282c-15.688 15.82-16.895 40.713-3.62 57.929l3.62 4.134z" />
<glyph unicode="&#xe90c;" glyph-name="m13-arrow-right-rtl" d="M673.333 742.346c-15.688 15.82-40.374 17.037-57.447 3.651l-4.1-3.651-261.12-263.314c-15.688-15.82-16.895-40.713-3.62-57.929l3.62-4.134 261.12-263.314c16.996-17.138 44.551-17.138 61.547 0 15.688 15.82 16.895 40.713 3.62 57.929l-3.62 4.134-230.312 232.282 230.312 232.282c15.688 15.82 16.895 40.713 3.62 57.929l-3.62 4.134z" />
<glyph unicode="&#xe90d;" glyph-name="m14-bracket" d="M636.075 749.261c4.921 6.276 13.701 7.776 20.353 3.547v0 0.136c46.556-30.15 85.53-71.215 113.73-119.782 98.434-169.715 44.031-389.087-121.447-490.043-2.394-1.5-5.32-2.319-8.114-2.319-4.655 0-9.176 2.184-12.103 5.868v0l-33.654 42.291-1.465 2.184c-4.255 7.775-1.595 17.597 5.986 21.965 36.447 22.1 67.174 52.795 89.921 89.357 79.679 128.515 42.566 299.048-82.739 380.767v0l-1.728 1.228c-6.785 5.594-7.714 15.689-2.261 22.647v0zM367.838 752.808c6.651 4.229 15.43 2.729 20.352-3.547v0l33.122-42.156 1.197-1.773c4.523-7.64 2.128-17.463-5.188-22.101-35.782-23.329-65.579-54.843-87.128-92.224-75.688-130.97-33.521-300.275 94.311-377.9v0l-0.266 0.271 2.128-1.5c6.651-5.594 7.715-15.552 2.394-22.374v0l-33.654-42.291c-2.926-3.684-7.449-5.868-12.105-5.868-2.793 0-5.72 0.819-8.114 2.319-47.488 28.923-87.394 69.033-116.791 116.918-102.159 166.986-53.075 387.314 109.741 492.226z" />
<glyph unicode="&#xe90e;" glyph-name="m15-close" d="M259.854 748.042l3.216-2.84 248.931-248.921 248.931 248.921c13.33 13.33 34.942 13.33 48.272 0 12.305-12.305 13.251-31.666 2.84-45.056l-2.84-3.216-248.931-248.931 248.931-248.931c13.33-13.33 13.33-34.942 0-48.272-12.305-12.305-31.666-13.251-45.056-2.84l-3.216 2.84-248.931 248.931-248.931-248.931c-13.33-13.33-34.942-13.33-48.272 0-12.305 12.305-13.251 31.666-2.84 45.056l2.84 3.216 248.921 248.931-248.921 248.931c-13.33 13.33-13.33 34.942 0 48.272 12.305 12.305 31.666 13.251 45.056 2.84z" />
<glyph unicode="&#xe90f;" glyph-name="m16-menu" d="M780.8 249.051c21.208 0 38.4-17.356 38.4-38.766 0-19.88-14.824-36.266-33.922-38.505l-4.478-0.261h-537.6c-21.208 0-38.4 17.356-38.4 38.766 0 19.88 14.824 36.266 33.922 38.505l4.478 0.261h537.6zM780.8 481.646c21.208 0 38.4-17.356 38.4-38.766 0-19.88-14.824-36.266-33.922-38.505l-4.478-0.261h-537.6c-21.208 0-38.4 17.356-38.4 38.766 0 19.88 14.824 36.266 33.922 38.505l4.478 0.261h537.6zM780.8 714.24c21.208 0 38.4-17.356 38.4-38.766 0-19.88-14.824-36.266-33.922-38.505l-4.478-0.261h-537.6c-21.208 0-38.4 17.356-38.4 38.766 0 19.88 14.824 36.266 33.922 38.505l4.478 0.261h537.6z" />
<glyph unicode="&#xe910;" glyph-name="m17-dark" d="M452.957 734.596c-154.914-61.48-227.478-239.863-163.462-397.532 64.406-158.627 242.131-236.564 396.104-175.456 30.984 12.296 57.747 29.614 82.4 49.445-126.948-6.845-250.471 69.159-301.997 196.061-51.525 126.904-14.501 266.624 81.063 348.086-31.679-2.526-63.126-8.308-94.109-20.604z" />
<glyph unicode="&#xe911;" glyph-name="m18-check" d="M746.158 651.918c18.115 16.156 45.854 14.519 61.956-3.657 14.864-16.777 14.617-41.782 0.243-58.237l-3.887-3.926-394.969-352.254c-17.819-15.892-44.674-14.443-60.754 2.345l-3.51 4.146-131.656 176.127c-14.542 19.454-10.613 47.054 8.777 61.645 17.898 13.468 42.713 11.145 57.863-4.594l3.576-4.213 102.999-137.819 359.362 320.437z" />
<glyph unicode="&#xe912;" glyph-name="m19-feature" d="M597.73 755.2c154.721 0 221.47-66.749 221.47-221.47v0-171.46c0-154.721-66.749-221.47-221.47-221.47v0h-171.46c-154.721 0-221.47 66.749-221.47 221.47v0 171.46c0 154.721 66.749 221.47 221.47 221.47v0zM597.73 712.335l-179.073-0.055c-125.281-1.842-170.992-50.072-170.992-178.55v0l0.055-179.073c1.842-125.281 50.072-170.992 178.55-170.992v0h171.46c131.047 0 178.605 47.558 178.605 178.605v0 171.46c0 131.047-47.558 178.605-178.605 178.605v0zM465.91 629.769c25.886 14.846 65.846 14.957 92.234 0.424v0l91.329-50.801c27.676-15.165 48.852-51.202 48.852-82.809v0-97.161c0-31.437-21.305-67.505-48.733-82.742v0l-91.528-50.91c-26.174-14.415-66.037-14.415-91.911 0.044v0l-91.328 50.801c-27.676 15.165-48.855 51.202-48.855 82.808v0 96.875c0 31.437 21.308 67.505 48.746 82.748v0zM655.459 496.948l-121.975-70.708 0.025-124.746c0.556 0.221 1.101 0.453 1.631 0.694l2.169 1.086 91.458 50.872c13.853 7.696 26.694 29.435 26.694 45.276v0 97.161c0 0.121-0.001 0.243-0.002 0.365zM368.845 496.753l-0.008-0.455v-96.875c0-16.005 12.692-37.602 26.707-45.282v0l91.484-50.887c1.115-0.623 2.313-1.193 3.58-1.709l0.010 124.675-121.774 70.533zM537.387 592.689c-13.287 7.317-37.328 7.251-50.396-0.242v0l-91.457-50.872c-2.748-1.527-5.457-3.606-8.033-6.083l124.499-72.118 124.895 72.39c-2.6 2.485-5.343 4.57-8.138 6.102v0z" />
<glyph unicode="&#xe913;" glyph-name="m20-lowcarbon" d="M271.326 246.815c-163.038 298.307 83.324 535.042 519.445 505.965 13.961-0.931 25.079-12.049 26.009-26.010 29.073-436.158-207.654-682.536-505.954-519.463l-58.351-58.33c-10.909-10.905-28.593-10.902-39.498 0.006-10.066 10.070-10.838 25.912-2.317 36.867l2.324 2.631zM751.014 698.858c-366.408 12.288-556.244-172.728-438.267-410.614l127.398 127.411c10.906 10.908 28.59 10.91 39.498 0.005 10.069-10.067 10.846-25.909 2.328-36.867l-2.323-2.631-127.381-127.442c237.873-117.994 422.876 71.853 410.591 438.291v0l-0.449 11.425z" />
<glyph unicode="&#xe914;" glyph-name="m21-hideimgs" d="M818.308 561.73c0.396-6.334 0.66-12.921 0.793-19.684l0.099-10.265v-167.564c0-152.241-65.895-220.904-215.046-223.35l-8.372-0.068h-167.564c-23.108 0-43.22 1.331-61.419 4.266-15.227 2.456-25.58 16.791-23.124 32.018s16.791 25.58 32.018 23.124c12.47-2.011 26.511-3.138 42.613-3.458l9.912-0.096h167.564c121.728 0 165.797 41.634 167.511 160.208l0.052 7.356-0.005 42.945-37.337 37.567c-10.040 10.040-25.729 10.813-36.623 2.332l-2.618-2.313-140.494-140.773c-19.284-19.284-50.651-19.284-69.936 0-10.906 10.906-10.906 28.589 0 39.495 9.228 9.228 23.308 10.648 34.030 4.259l0.38-0.269 136.506 136.763c31.382 31.382 81.363 32.637 114.286 3.712l1.806-1.691 0.005 45.535c0 9.242-0.264 18.155-0.783 26.464-0.962 15.394 10.737 28.653 26.131 29.615s28.653-10.737 29.615-26.131zM595.782 755.2c64.006 0 112.351-11.065 148.243-35.672l27.501 27.492c10.906 10.906 28.589 10.906 39.495 0 10.067-10.067 10.842-25.909 2.323-36.864l-2.323-2.631-558.545-558.545c-10.906-10.906-28.589-10.906-39.495 0-10.067 10.067-10.842 25.909-2.323 36.864l2.323 2.631 27.482 27.487c-23.142 34.049-34.375 79.182-35.557 137.736l-0.105 10.52v167.564c0 152.241 65.895 220.904 215.046 223.35l8.372 0.068h167.564zM595.782 699.345h-167.564c-121.728 0-165.797-41.634-167.511-160.208l-0.052-174.92c0-47.436 6.822-82.484 20.426-107.638l422.382 422.367c-23.177 12.65-55.124 19.416-97.881 20.299l-9.799 0.099zM400.291 643.491c46.272 0 83.782-37.51 83.782-83.782s-37.51-83.782-83.782-83.782c-46.272 0-83.782 37.51-83.782 83.782s37.51 83.782 83.782 83.782zM400.291 587.636c-15.425 0-27.927-12.503-27.927-27.927s12.503-27.927 27.927-27.927c15.425 0 27.927 12.503 27.927 27.927s-12.503 27.927-27.927 27.927z" />
<glyph unicode="&#xe915;" glyph-name="m22-lowcarbon2" d="M239.345 724.48c168.469-57.209 269.897-121.487 323.855-188.34v0c-29.659-53.471-52.688-103.925-62.528-160.066-65.667 141.279-165.401 212.028-165.401 212.028 66.549-79.075 168.998-321.892 156.479-426.822 0 0-94.903 18.789-170.938 80.174-199.187 160.758-81.466 483.026-81.466 483.026zM726.968 622.105c248.255-348.409-83.27-460.798-83.27-460.798 107.448 195.946 58.244 290.421 58.244 290.421 3.015-24.637-43.514-238.377-105.281-272.689-122.383 239.995 130.307 443.067 130.307 443.067z" />
<glyph unicode="&#xe916;" glyph-name="m23-new-arrow" d="M575.811 687.863l4.302-3.472 228.548-217.012c12.646-12.008 13.91-31.282 3.794-44.743l-3.794-4.254-228.548-217.012c-13.602-12.915-35.153-12.417-48.136 1.113-11.685 12.177-12.448 30.759-2.568 43.769l3.687 4.114 167.064 158.65h-461.313c-18.804 0-34.047 15.163-34.047 33.868 0 17.004 12.598 31.081 29.016 33.5l5.031 0.367 461.334 0.003-167.084 158.64c-12.241 11.624-13.872 30.151-4.61 43.603l3.491 4.28c11.685 12.177 30.31 13.798 43.834 4.586z" />
<glyph unicode="&#xe917;" glyph-name="m24-new-arrow-rtl" d="M448.189 687.863l-4.302-3.472-228.548-217.012c-12.646-12.008-13.91-31.282-3.794-44.743l3.794-4.254 228.548-217.012c13.602-12.915 35.153-12.417 48.136 1.113 11.685 12.177 12.448 30.759 2.568 43.769l-3.687 4.114-167.064 158.65h461.313c18.804 0 34.047 15.163 34.047 33.868 0 17.004-12.598 31.081-29.016 33.5l-5.031 0.367-461.334 0.003 167.084 158.64c12.241 11.624 13.872 30.151 4.61 43.603l-3.491 4.28c-11.685 12.177-30.31 13.798-43.834 4.586z" />
<glyph unicode="&#xe918;" glyph-name="m25-pause" d="M426.667 192h-170.667v512h170.667v-512zM768 192h-170.667v512h170.667v-512z" />
<glyph unicode="&#xe919;" glyph-name="m26-play" d="M318.181 151.767l466.805 262.093c7.516 4.225 13.554 9.466 17.695 15.362 4.136 5.897 6.279 12.311 6.279 18.801s-2.143 12.904-6.279 18.802c-4.141 5.897-10.179 11.137-17.695 15.362l-466.805 262.096c-44.557 25.013-113.381 4.275-113.381-34.164v-524.268c0-38.438 68.824-59.174 113.381-34.085z" />
<glyph unicode="&#xe91a;" glyph-name="m27-shield-list" d="M508.385 754.478c2.313 0.963 4.917 0.963 7.23 0v0l246.641-102.728c3.48-1.449 5.744-4.835 5.744-8.587v0-124.863c0-165.342-99.771-314.287-252.438-376.799-2.282-0.934-4.842-0.935-7.124-0.001-152.668 62.478-252.438 211.424-252.438 376.8v0 124.863c0 3.752 2.265 7.137 5.744 8.587v0zM511.991 735.8l-237.273-98.807v-118.693c0-155.382 92.256-295.537 234.053-356.728v0l3.22-1.353 3.235 1.354c139.547 60.252 231.114 196.949 233.986 349.342v0l0.070 7.386-0.018 118.693-237.273 98.807zM616.595 530.391c3.262-3.218 3.644-8.233 1.132-11.871l-1.078-1.294-125.995-126.349c-3.255-3.264-8.332-3.626-11.991-1.087l-1.299 1.088-70.326 70.542c-3.64 3.651-3.615 9.545 0.056 13.165 3.263 3.218 8.307 3.556 11.944 1.027l1.292-1.083 63.677-63.86 119.353 119.667c3.64 3.65 9.566 3.674 13.236 0.054z" />
<glyph unicode="&#xe91b;" glyph-name="m28-top-arrow" d="M532.361 748.835c-8.417 8.487-22.064 8.487-30.482 0l-137.166-138.296c-8.417-8.487-8.417-22.246 0-30.733s22.064-8.487 30.481 0l121.926 122.93 121.926-122.93c8.417-8.487 22.064-8.486 30.482 0s8.417 22.246 0 30.733l-137.166 138.296zM538.674 140.8v592.669h-43.107v-592.669h43.107z" />
<glyph unicode="&#xe91c;" glyph-name="m29-mail" d="M738.358 683.52c44.648 0 80.842-35.913 80.842-80.213v0-320.853c0-44.301-36.193-80.213-80.842-80.213v0h-452.716c-44.648 0-80.842 35.912-80.842 80.213v0 320.853c0 44.301 36.194 80.213 80.842 80.213v0zM738.358 630.044h-452.716c-14.883 0-26.947-11.971-26.947-26.738v0-320.853c0-14.767 12.064-26.738 26.947-26.738v0h452.716c14.883 0 26.947 11.97 26.947 26.738v0 320.853c0 14.767-12.064 26.738-26.947 26.738v0zM727.27 587.658c8.434-10.76 7.28-25.901-2.188-35.297l-2.539-2.224-194.021-149.731c-8.758-6.759-20.671-7.435-30.060-2.028l-3.028 2.028-194.021 149.731c-11.748 9.066-13.864 25.865-4.727 37.521 8.434 10.76 23.509 13.377 35.018 6.585l2.797-1.895 177.471-136.928 177.482 136.928c11.748 9.066 28.678 6.966 37.815-4.69z" />
<glyph unicode="&#xe91d;" glyph-name="m30-phone" d="M326.546 755.015c-4.080-0.318-7.568-1.128-11.173-2.398l-5.145-2.060-5.837-2.558c-13.698-5.763-26.839-12.768-39.258-20.927-26.395-17.534-41.505-33.244-52.157-56.004-16.8-35.897-8.396-91.319 31.612-163.994 43.933-79.804 75.549-121.809 139.789-185.868 60.378-60.204 108.528-95.703 185.931-139.109 78.479-43.952 125.523-49.818 164.52-31.657 22.864 10.649 38.664 25.729 56.091 51.905 6.193 9.385 11.694 19.121 16.494 29.182l7.749 17.405c2.104 5.003 3.41 9.382 3.845 14.816 1.243 15.526-3.347 24.557-17.818 40.084l-8.077 8.365c-21.111 21.268-70.406 53.157-105.048 70.625-41.069 20.686-55.981 21.684-87.218-0.486l-17.273-12.905-4.147-2.849c-3.823-2.415-4.702-2.625-7.194-2.093-17.106 3.648-55.769 27.729-85.752 57.615-30.15 30.053-55.493 70.095-59.076 86.781-0.496 2.312-0.318 3.057 2.028 6.766l7.784 10.737 4.695 6.224c24.257 33.026 24.232 47.972 4.267 90.901-14.815 31.78-49.009 83.773-71.307 105.709-20.983 20.725-30.263 27.204-48.324 25.794zM320.153 688.942l6.503 2.942 5.843-5.647c9.986-9.824 24.903-30.36 37.825-50.768l8.244-13.467c3.898-6.605 7.404-12.928 10.261-18.568l6.389-13.2 3.67-7.348c1.674-3.55 1.817-4.873 0.528-6.805l-7.398-9.326-8.878-12.055-3.885-5.515-0.834-1.269c-10.229-16.171-14.143-32.545-10.031-51.7 6.368-29.661 37.764-79.267 75.478-116.86 37.55-37.427 85.858-67.516 115.771-73.896 19.266-4.109 35.751-0.185 52.024 10.097l3.444 2.262 19.359 14.456 5.778 4.989c1.556 1.214 2.521 1.336 4.677 0.318l3.272-1.77 5.098-2.881c1.040-0.574 2.184-1.194 3.447-1.862l4.16-2.146c5.865-2.958 12.337-6.475 19.061-10.334l13.683-8.112c23.020-14.067 46.243-30.335 56.605-40.775l5.543-5.744 0.534 1.098c-4.298-10.194-9.571-20.052-15.717-29.366-11.684-17.549-19.6-25.104-31.264-30.537-14.906-6.941-34.479-6.531-71.344 10.058l-11.591 5.471-12.704 6.495c-4.429 2.341-9.055 4.862-13.893 7.572-72.788 40.818-116.527 73.065-172.821 129.197-60.195 60.025-88.357 97.441-129.532 172.236-31.595 57.393-37.106 93.734-29.82 109.302 5.395 11.528 12.991 19.425 30.76 31.23 6.908 4.538 14.194 8.636 21.751 12.229z" />
<glyph unicode="&#xe91e;" glyph-name="m31-location" d="M512 755.2c123.95 0 225.28-94.286 225.28-211.466 0-96.682-72.315-229.2-170.56-362.392v0l-15.721-21.031c-4.53-6.088-10.443-11.020-17.248-14.405-6.753-3.359-14.202-5.106-21.751-5.106s-14.997 1.747-21.752 5.107c-6.804 3.385-12.717 8.317-17.116 14.23v0l-15.74 21.065c-7.765 10.532-15.368 21.058-22.786 31.561v0l-14.582 20.971-14.048 20.88c-71.132 107.592-119.256 210.306-119.256 289.12 0 117.18 101.329 211.466 225.28 211.466zM512 701.774c-95.289 0-171.88-71.267-171.88-158.040 0-51.063 27.745-120.483 71.248-195.996v0l11.197-18.998c13.43-22.296 28.116-45.024 43.76-67.879v0l13.637-19.614c2.31-3.272 4.637-6.545 6.981-9.817v0l14.263-19.628 10.781-14.476 11.325 15.166c2.538 3.445 5.058 6.892 7.561 10.341v0l14.793 20.695c77.659 110.351 134.847 219.677 138.072 293.725v0l0.144 6.483c0 86.773-76.591 158.040-171.88 158.040zM512.023 624.296c58.265 0 106.132-45.073 106.132-101.51s-47.868-101.51-106.132-101.51c-58.265 0-106.132 45.073-106.132 101.51s47.867 101.51 106.132 101.51zM512.023 570.87c-29.473 0-52.732-21.902-52.732-48.083s23.259-48.084 52.732-48.084c29.473 0 52.733 21.902 52.733 48.084s-23.26 48.083-52.733 48.083z" />
<glyph unicode="&#xe91f;" glyph-name="m32-home2" d="M502.3 764.674c8.559 1.362 17.335 0.908 25.747-1.362v0l4.008-1.255c5.057-1.805 8.602-3.502 13.442-6.735v0l6.607-4.724 229.978-178.33 7.81-6.619c0.704-0.644 1.371-1.272 2.018-1.902v0l3.8-3.908c1.958-2.115 3.756-4.274 5.431-6.531 6.671-8.987 11.639-19.112 14.658-29.87v0l1.418-5.663 0.963-5.625c0.127-0.981 0.239-1.995 0.338-3.059v0l0.442-7.134 0.202-9.185 0.037-241.898-0.131-15.3-0.346-12.525c-0.884-20.734-3.282-30.080-9.556-42.353-8.832-17.287-22.933-31.342-40.276-40.15-11.81-6-23.049-8.501-41.6-9.463v0l-13.537-0.435-7.743-0.087h-388.239c-2.684 0.018-5.246 0.046-7.698 0.088v0l-13.468 0.435c-18.467 0.962-29.705 3.463-41.514 9.462-17.343 8.809-31.442 22.861-40.279 40.148-6.017 11.773-8.525 22.975-9.49 41.464v0l-0.436 13.492-0.087 7.717 0.006 249.321c0.143 13.769 0.88 21.869 3.374 30.75 3.022 10.761 7.988 20.883 14.654 29.866 1.679 2.262 3.477 4.422 5.435 6.536 0.643 0.694 1.269 1.357 1.896 2.003v0l3.923 3.807c0.704 0.644 1.444 1.302 2.24 1.992v0l9.115 7.451 221.919 172.085c12.403 9.534 18.693 13.469 28.57 16.135v0zM511.916 704.022l-226.884-175.812-8.456-6.882-3.152-3.025-1.19-1.421c-2.222-2.994-3.877-6.368-4.884-9.955-0.226-0.804-0.414-1.749-0.567-2.964v0l-0.36-4.591-0.175-7.003 0.056-254.615 0.255-9.671 0.442-7.39c0.090-1.062 0.188-2.045 0.295-2.956v0l0.744-4.665 0.958-3.313 0.563-1.265c2.944-5.76 7.643-10.443 13.428-13.381 0.387-0.197 0.807-0.384 1.268-0.561v0l3.318-0.955 4.665-0.741c0.91-0.106 1.891-0.204 2.952-0.294v0l7.37-0.441 9.629-0.255 409.149 0.255 7.414 0.441c1.066 0.090 2.051 0.188 2.965 0.294v0l4.68 0.741 3.323 0.955 1.269 0.561c5.783 2.938 10.481 7.62 13.425 13.381 0.175 0.343 0.342 0.702 0.501 1.085v0l0.857 2.633 0.679 3.54 0.518 4.793 0.373 6.39 0.326 13.337 0.089 245.616-0.066 8.105-0.27 7.684-0.326 3.074-0.469 2.183c-1.005 3.583-2.659 6.953-4.883 9.949v0l-2.072 2.337-5.663 4.955-232.093 179.847zM634.877 314.266c16.967 0 30.722-13.71 30.722-30.623 0-15.612-11.72-28.495-26.868-30.384l-3.854-0.239h-245.776c-16.967 0-30.722 13.71-30.722 30.623 0 15.612 11.72 28.495 26.868 30.384l3.854 0.239h245.776z" />
<glyph unicode="&#xe920;" glyph-name="m33-clock" d="M512 755.2c169.582 0 307.2-137.618 307.2-307.2s-137.618-307.2-307.2-307.2c-169.582 0-307.2 137.618-307.2 307.2s137.618 307.2 307.2 307.2zM512 699.345c-138.735 0-251.345-112.611-251.345-251.345s112.611-251.345 251.345-251.345c138.735 0 251.345 112.611 251.345 251.345s-112.611 251.345-251.345 251.345zM501.673 601.309c14.138 0 25.823-10.506 27.672-24.138l0.255-3.79v-114.502c0-6.741 5.407-17.066 11.241-22.197l2.512-1.856 86.576-51.665c13.245-7.904 17.574-25.048 9.67-38.293-7.245-12.141-22.255-16.791-34.908-11.393l-3.385 1.723-86.502 51.621c-21.898 12.976-38.531 40.327-40.795 66.139l-0.263 5.922v114.502c0 15.424 12.503 27.927 27.927 27.927z" />
<glyph unicode="&#xe921;" glyph-name="m34-share" d="M696.32 320.925c-23.347 0-44.237-9.253-60.211-23.749l-219.034 128c1.536 7.094 2.765 14.188 2.765 21.59s-1.229 14.496-2.765 21.59l216.576 126.766c16.589-15.422 38.4-24.983 62.669-24.983 50.995 0 92.16 41.33 92.16 92.53s-41.165 92.53-92.16 92.53c-50.995 0-92.16-41.33-92.16-92.53 0-7.402 1.229-14.496 2.765-21.59l-216.576-126.766c-16.589 15.422-38.4 24.983-62.669 24.983-50.995 0-92.16-41.33-92.16-92.53s41.165-92.53 92.16-92.53c24.269 0 46.080 9.561 62.669 24.983l218.726-128.308c-1.536-6.477-2.458-13.263-2.458-20.048 0-49.658 40.243-90.063 89.702-90.063s89.702 40.405 89.702 90.063c0 49.658-40.243 90.063-89.702 90.063zM696.32 693.513c16.896 0 30.72-13.88 30.72-30.843s-13.824-30.843-30.72-30.843c-16.896 0-30.72 13.88-30.72 30.843s13.824 30.843 30.72 30.843zM327.68 415.923c-16.896 0-30.72 13.88-30.72 30.843s13.824 30.843 30.72 30.843c16.896 0 30.72-13.88 30.72-30.843s-13.824-30.843-30.72-30.843zM696.32 199.418c-16.896 0-30.72 13.88-30.72 30.843s13.824 30.843 30.72 30.843c16.896 0 30.72-13.88 30.72-30.843s-13.824-30.843-30.72-30.843z" />
<glyph unicode="&#xe922;" glyph-name="m35-quote" d="M774.58 683.52l34.38-43.41c-39.098-31.456-69.433-64.8-91.005-100.030-21.572-33.973-32.357-66.688-32.357-98.144 0-17.615 4.045-28.939 12.133-33.972 6.741-6.291 15.504-12.583 26.29-18.873 13.483-7.55 26.965-18.245 40.447-32.086 12.134-15.099 18.202-34.602 18.202-58.508 0-26.423-9.438-49.072-28.313-67.945-20.224-18.873-45.84-28.311-76.849-28.311-32.357 0-61.345 13.212-86.961 39.635s-38.424 65.428-38.424 117.017c0 45.298 10.111 88.077 30.335 128.342 18.874 41.522 45.166 78.64 78.871 111.355 32.357 33.973 70.108 62.283 113.251 84.932zM437.497 683.52l34.38-43.41c-39.098-31.456-69.433-64.8-91.005-100.030-21.572-33.973-32.357-66.688-32.357-98.144 0-17.615 4.045-28.939 12.134-33.972 6.741-6.291 15.504-12.583 26.29-18.873 13.482-7.55 26.965-18.245 40.447-32.086 12.133-15.099 18.201-34.602 18.201-58.508 0-26.423-9.437-49.072-28.313-67.945-20.223-18.873-45.839-28.311-76.849-28.311-32.357 0-61.344 13.212-86.96 39.635s-38.424 65.428-38.424 117.017c0 45.298 10.112 88.077 30.335 128.342 18.875 41.522 45.166 78.64 78.871 111.355 32.357 33.973 70.107 62.283 113.25 84.932z" />
<glyph unicode="&#xe923;" glyph-name="m36-burger-menu" d="M791.273 247.751c15.424 0 27.927-12.48 27.927-27.876 0-14.296-10.781-26.078-24.67-27.688l-3.257-0.188h-558.545c-15.424 0-27.927 12.48-27.927 27.876 0 14.296 10.781 26.078 24.67 27.688l3.257 0.188h558.545zM791.273 470.756c15.424 0 27.927-12.48 27.927-27.876 0-14.296-10.781-26.078-24.67-27.688l-3.257-0.188h-558.545c-15.424 0-27.927 12.48-27.927 27.876 0 14.296 10.781 26.078 24.67 27.688l3.257 0.188h558.545zM791.273 693.76c15.424 0 27.927-12.48 27.927-27.876 0-14.296-10.781-26.078-24.67-27.688l-3.257-0.188h-558.545c-15.424 0-27.927 12.48-27.927 27.876 0 14.296 10.781 26.078 24.67 27.688l3.257 0.188h558.545z" />
<glyph unicode="&#xe924;" glyph-name="m37-img-list" d="M597.73 755.2c154.721 0 221.47-66.749 221.47-221.47v0-171.46c0-154.721-66.749-221.47-221.47-221.47v0h-171.46c-154.721 0-221.47 66.749-221.47 221.47v0 171.46c0 154.721 66.749 221.47 221.47 221.47v0zM687.757 419.897l-3.201-2.438-118.872-102.013c-28.944-24.862-73.879-25.992-104.436-3.252l-4.264 3.411-9.25 8.13c-11.937 10.256-31.579 12.035-46.031 4.533l-3.497-2.069-125.062-83.969c26.358-41.595 74.847-58.564 153.125-58.564v0h171.46c131.047 0 178.605 47.558 178.605 178.605v0l-0.010 21.607-39.106 33.588c-13.239 11.372-35 12.185-49.463 2.432zM597.73 712.335l-179.073-0.055c-125.281-1.842-170.992-50.072-170.992-178.55v0l0.055-179.073c0.41-27.868 3.115-51.799 8.488-72.166l118.111 79.299c28.928 19.407 69.204 18.378 97.015-2.106l4.516-3.594 9.248-8.129c13.239-11.372 35-12.185 49.463-2.432l3.201 2.438 118.872 102.013c28.944 24.862 73.879 25.992 104.276 3.391l4.24-3.39 11.176-9.6 0.010 93.349c0 129.723-46.602 177.635-174.659 178.59l-3.946 0.015zM426.27 640.893c43.403 0 78.586-35.184 78.586-78.586s-35.184-78.586-78.586-78.586c-43.402 0-78.586 35.184-78.586 78.586s35.184 78.586 78.586 78.586zM426.27 598.028c-19.728 0-35.721-15.993-35.721-35.721s15.993-35.721 35.721-35.721c19.729 0 35.721 15.992 35.721 35.721s-15.992 35.721-35.721 35.721z" />
<glyph unicode="&#xe925;" glyph-name="m38-star" d="M633.642 600.076l-49.505 99.857c-36.332 73.673-107.979 73.673-144.646 0.099l-49.46-99.763c-3.068-6.315-13.806-14.345-20.457-15.484l-89.508-14.998c-78.405-13.179-99.861-80.945-43.838-137.447l69.659-70.253c5.414-5.459 9.323-19.234 7.596-27.005l-19.903-86.792c-20.902-91.098 39.999-135.914 120.080-87.984l83.958 50.123c7.020 4.119 21.735 4.119 28.614 0.007l83.993-50.145c80.381-47.886 140.932-3.365 120.059 87.979l-19.947 86.985c-1.688 7.598 2.222 21.373 7.634 26.831l69.66 70.255c56.286 56.38 34.655 124.253-43.825 137.444l-89.615 15.016c-6.837 1.149-17.568 9.135-20.55 15.275zM536.906 676.624l49.46-99.763c10.357-21.329 35.517-40.052 59.112-44.018l89.615-15.016c36.234-6.091 41.348-22.138 15.21-48.32l-69.722-70.317c-18.107-18.259-27.214-50.347-21.615-75.541l19.982-87.138c10.579-46.296-1.327-55.050-41.754-30.965l-83.961 50.126c-23.445 14.012-58.727 14.012-82.433 0.101l-84.155-50.24c-40.131-24.020-52.298-15.066-41.734 30.975l19.943 86.968c5.638 25.367-3.47 57.455-21.577 75.715l-69.657 70.252c-26.050 26.272-20.971 42.312 15.16 48.386l89.588 15.011c23.439 4.014 48.528 22.776 58.94 44.213l49.34 99.521c17.238 34.588 33.226 34.588 50.258 0.050z" />
<glyph unicode="&#xe926;" glyph-name="m39-arrow-top-small" d="M468.555 614.325c22.731 22.731 58.842 23.927 82.981 3.589l3.908-3.589 245.76-245.76c23.994-23.994 23.994-62.895 0-86.889-22.731-22.731-58.842-23.927-82.981-3.589l-3.908 3.589-202.315 202.298-202.315-202.298c-22.731-22.731-58.842-23.927-82.981-3.589l-3.908 3.589c-22.731 22.731-23.927 58.842-3.589 82.981l3.589 3.908 245.76 245.76z" />
<glyph unicode="&#xe927;" glyph-name="m40-sort" d="M653.785 755.2c91.356 0 165.415-74.059 165.415-165.415v0-283.569c0-91.356-74.059-165.415-165.415-165.415v0h-283.569c-91.356 0-165.415 74.059-165.415 165.415v0 283.569c0 91.356 74.059 165.415 165.415 165.415v0zM653.785 707.938h-283.569c-65.255 0-118.154-52.899-118.154-118.154v0-283.569c0-65.254 52.899-118.154 118.154-118.154v0h283.569c65.254 0 118.154 52.899 118.154 118.154v0 283.569c0 65.255-52.899 118.154-118.154 118.154v0zM571.077 353.477c17.494 0 32.767-9.504 40.939-23.631h41.769c13.051 0 23.631-10.58 23.631-23.631 0-12.119-9.122-22.107-20.875-23.472l-2.756-0.159h-41.769c-8.172-14.126-23.445-23.631-40.939-23.631s-32.767 9.504-40.939 23.631h-159.923c-13.051 0-23.631 10.58-23.631 23.631 0 12.119 9.122 22.107 20.875 23.472l2.756 0.159h159.923c8.172 14.126 23.445 23.631 40.939 23.631zM606.523 637.046l0.828-0.014c0.184-0.006 0.369-0.015 0.553-0.026l0.257-0.016 0.989-0.090c0.14-0.016 0.279-0.032 0.418-0.050 0.48-0.062 0.958-0.139 1.434-0.23 0.13-0.023 0.252-0.047 0.373-0.073 0.853-0.18 1.704-0.407 2.542-0.683 0.157-0.050 0.309-0.102 0.46-0.156l0.307-0.111c0.241-0.089 0.481-0.181 0.72-0.278 0.192-0.078 0.382-0.158 0.571-0.24 0.068-0.029 0.139-0.061 0.21-0.092 0.274-0.124 0.454-0.208 0.632-0.294 0.218-0.107 0.433-0.215 0.645-0.326 0.074-0.037 0.155-0.080 0.236-0.123l0.121-0.066c0.169-0.092 0.338-0.187 0.505-0.283 0.142-0.084 0.285-0.169 0.426-0.255 0.138-0.081 0.276-0.167 0.414-0.254l0.343-0.222c0.003-0.002 0.007-0.005 0.010-0.007l0.131-0.090c0.165-0.111 0.329-0.223 0.491-0.338 0.151-0.104 0.296-0.209 0.44-0.316l0.184-0.138c0.080-0.061 0.16-0.122 0.24-0.184 0.241-0.19 0.407-0.324 0.572-0.461 0.178-0.146 0.354-0.296 0.529-0.45 0.288-0.253 0.566-0.51 0.838-0.773l-0.004 0.004 0.292-0.287 70.892-70.892c9.228-9.228 9.228-24.191 0-33.419-8.519-8.519-21.923-9.174-31.193-1.966l-2.226 1.966-30.557 30.556 0.005-132.001c0-13.051-10.58-23.631-23.631-23.631-12.119 0-22.107 9.122-23.472 20.875l-0.159 2.756-0.001 132.001-30.551-30.556c-9.228-9.228-24.191-9.228-33.419 0-8.519 8.519-9.174 21.923-1.966 31.193l1.966 2.226 71.995 71.927c0.063 0.056 0.126 0.111 0.19 0.166l-1.293-1.2c0.534 0.534 1.086 1.036 1.656 1.508 0.242 0.199 0.486 0.392 0.733 0.582 0.258 0.199 0.519 0.39 0.784 0.575 0.183 0.126 0.368 0.251 0.554 0.374 0.11 0.075 0.224 0.149 0.338 0.221l0.174 0.109c0.119 0.074 0.238 0.147 0.357 0.218 0.194 0.114 0.392 0.228 0.591 0.34 0.185 0.106 0.37 0.206 0.556 0.303 0.334 0.173 0.672 0.34 1.014 0.5 0.141 0.066 0.284 0.131 0.429 0.195 0.576 0.253 1.162 0.484 1.759 0.692l0.197 0.066c0.156 0.053 0.313 0.104 0.47 0.153l0.319 0.098c0.106 0.032 0.212 0.062 0.318 0.093 0.058 0.018 0.117 0.035 0.175 0.051l0.381 0.099c0.13 0.033 0.259 0.065 0.39 0.097l0.118 0.028c0.188 0.044 0.377 0.085 0.566 0.125l0.002 0.003 0.368 0.071c0.269 0.051 0.539 0.098 0.81 0.14 0.134 0.021 0.271 0.041 0.408 0.060 0.238 0.034 0.476 0.063 0.715 0.089 0.129 0.013 0.256 0.025 0.382 0.037 0.461 0.042 0.929 0.071 1.401 0.085 0.121 0.004 0.24 0.006 0.36 0.008l0.381 0.003zM417.477 637.046c12.119 0 22.107-9.122 23.472-20.875l0.159-2.756-0.009-131.992 30.562 30.548c9.228 9.228 24.191 9.228 33.419 0 8.519-8.519 9.174-21.923 1.966-31.193l-1.966-2.226-70.892-70.892c-0.413-0.413-0.84-0.81-1.283-1.191l1.283 1.191c-0.527-0.527-1.073-1.024-1.636-1.491-0.28-0.231-0.565-0.456-0.854-0.675-0.055-0.044-0.108-0.083-0.16-0.122l-0.087-0.064c-0.128-0.094-0.257-0.187-0.386-0.278-0.255-0.177-0.513-0.352-0.776-0.521-0.056-0.039-0.111-0.074-0.167-0.109-0.22-0.138-0.38-0.237-0.542-0.333-0.211-0.124-0.426-0.248-0.643-0.368-0.166-0.094-0.33-0.182-0.495-0.269-0.334-0.173-0.672-0.34-1.014-0.5-0.141-0.066-0.284-0.131-0.429-0.195-0.805-0.354-1.632-0.665-2.479-0.929-0.326-0.1-0.654-0.194-0.983-0.281-0.215-0.057-0.427-0.11-0.64-0.16-0.164-0.038-0.332-0.076-0.501-0.112l-0.157-0.035-0.512-0.097c-0.14-0.025-0.28-0.050-0.42-0.073-0.194-0.032-0.393-0.062-0.591-0.089-0.255-0.037-0.51-0.067-0.766-0.094-0.112-0.011-0.222-0.021-0.331-0.031-0.461-0.042-0.929-0.071-1.401-0.085-0.121-0.004-0.24-0.006-0.36-0.008l-0.381-0.003-0.634 0.008c-0.301 0.008-0.601 0.022-0.901 0.041l-0.113 0.008c-0.337 0.023-0.674 0.054-1.011 0.092-0.125 0.014-0.251 0.029-0.377 0.045-0.483 0.062-0.965 0.139-1.444 0.232-0.13 0.023-0.252 0.047-0.373 0.073-0.853 0.18-1.704 0.407-2.542 0.683-0.202 0.065-0.399 0.133-0.595 0.204-0.208 0.076-0.417 0.154-0.625 0.235-0.284 0.111-0.562 0.226-0.838 0.347-0.068 0.029-0.139 0.061-0.21 0.092l-0.105 0.047c-0.177 0.080-0.352 0.162-0.527 0.247-0.218 0.107-0.433 0.215-0.645 0.326-0.074 0.037-0.155 0.080-0.236 0.123l-0.111 0.060c-0.173 0.094-0.345 0.19-0.516 0.289-0.191 0.112-0.382 0.226-0.571 0.343-0.087 0.051-0.178 0.108-0.269 0.166l-0.182 0.117c-0.103 0.066-0.205 0.134-0.307 0.202-0.236 0.16-0.471 0.324-0.704 0.493-0.135 0.095-0.268 0.194-0.4 0.294-0.011 0.010-0.025 0.021-0.038 0.031-0.070 0.051-0.139 0.105-0.209 0.159-0.255 0.201-0.446 0.355-0.634 0.512-0.159 0.132-0.319 0.268-0.477 0.408-0.284 0.25-0.559 0.504-0.828 0.764-0.093 0.090-0.19 0.186-0.287 0.282l-70.892 70.892c-9.228 9.228-9.228 24.191 0 33.419 8.519 8.519 21.923 9.174 31.193 1.966l2.226-1.966 30.547-30.548 0.006 131.992c0 13.051 10.58 23.631 23.631 23.631z" />
<glyph unicode="&#xe928;" glyph-name="m41-share2" d="M405.782 210.6c19.812-9.838 40.881-16.604 62.264-20.602 28.931-5.535 58.491-5.842 87.424-0.922 21.383 3.691 42.451 10.148 61.95 19.374 11.636 5.227 25.472 0.922 30.503-10.455 5.661-11.072 1.26-24.601-10.377-29.828-38.68-18.142-80.189-27.366-123.588-27.366-45.283 0-88.365 9.838-128.618 29.826-11.321 5.227-15.723 18.757-10.063 29.828 5.346 11.069 19.183 15.372 30.504 10.145zM293.48 390.507c48.743 0 88.681-38.745 88.681-86.713 0-47.971-39.623-86.716-88.681-86.716s-88.68 38.745-88.68 86.716c0 47.968 39.938 86.713 88.68 86.713zM730.521 390.507c49.057 0 88.679-38.745 88.679-86.713 0-47.971-39.622-86.716-88.679-86.716-49.059 0-88.681 38.745-88.681 86.716 0 47.968 39.937 86.713 88.681 86.713zM380.878 642.972c7.233-10.147 4.717-23.985-5.346-31.057-56.605-39.359-93.398-100.244-100.316-167.584-1.258-11.686-11.321-20.295-22.956-20.295h-2.201c-12.579 1.229-21.699 12.301-20.441 24.599 8.491 80.257 51.887 152.826 119.499 199.566 10.063 7.072 24.529 4.612 31.761-5.227zM676.529 649.442c68.238-46.432 112.264-119.001 121.386-199.257 1.257-12.301-7.862-23.37-20.441-24.601h-2.517c-11.636 0-21.383 8.612-22.643 19.988-7.548 67.649-44.653 128.534-101.887 167.278-10.377 7.072-12.893 20.91-5.661 31.057s21.383 12.607 31.762 5.535zM513.6 755.2c49.057 0 88.681-38.745 88.681-86.714s-39.625-86.714-88.681-86.714c-49.057 0-88.681 38.745-88.681 86.714s39.939 86.714 88.681 86.714z" />
<glyph unicode="&#xe929;" glyph-name="m42-mail2" d="M262.401 652.8l500.827-0.042c9.245-0.418 19.686-2.776 29.735-8.678 16.325-9.588 26.238-26.159 26.238-48.531v0-305.338c0-7.469-1.654-17.336-6.827-27.618-9.145-18.179-26.431-29.633-50.773-29.633v0h-499.2c-7.515 0-17.441 1.644-27.787 6.786-18.29 9.089-29.813 26.271-29.813 50.467v0l0.042 306.954c0.27 5.907 1.347 12.305 3.659 18.775-1.325 5.15-0.482 10.819 2.792 15.539 3.108 4.48 7.799 7.229 12.812 8.016 9.625 8.469 22.528 13.304 38.295 13.304v0zM780.79 595.159l-150.149-102.912 80.006-73.511c7.786-7.155 8.263-19.228 1.065-26.968-6.544-7.036-17.178-8.067-24.907-2.821l-2.225 1.762-86.338 79.337-46.711-32.025c-13.495-9.258-29.505-14.217-45.902-14.217-14.576 0-28.844 3.918-41.308 11.288l-4.587 2.925-46.754 32.050-86.346-79.357c-7.786-7.155-19.934-6.681-27.132 1.058-6.544 7.036-6.745 17.654-0.877 24.901l1.942 2.066 80.013 73.532-137.359 94.147-0.020-296.203c0-8.544 2.48-12.852 7.406-15.696l1.18-0.632c4.055-2.015 8.528-2.756 10.613-2.756v0h499.2c9.258 0 13.572 2.859 16.427 8.534 2.027 4.030 2.773 8.476 2.773 10.549v0l-0.010 304.948zM269.701 614.636l211.838-145.203c7.084-4.86 15.483-7.462 24.089-7.462 7.17 0 14.2 1.807 20.446 5.224l3.649 2.242 211.796 145.177-471.818 0.020z" />
<glyph unicode="&#xe92a;" glyph-name="m43-phone2" d="M369.708 755.196h-85.968c-10.993-0.017-21.835-2.307-31.863-6.728-10.032-4.423-19.031-10.883-26.425-18.968s-13.019-17.617-16.52-27.991c-3.501-10.375-4.799-21.363-3.812-32.265 9.819-92.322 41.175-180.715 91.561-258.352 45.697-71.786 106.804-132.782 178.877-178.496 77.258-50.010 165.384-81.303 257.125-91.255 11.34-1.028 22.38 0.279 32.804 3.796 10.42 3.517 19.99 9.169 28.096 16.59 8.111 7.43 14.576 16.463 18.979 26.524 4.406 10.053 6.661 20.926 6.613 31.908v85.926c0.475 18.799-6.18 37.637-18.704 52.394-12.531 14.76-30.052 24.406-49.239 27.106-26.151 3.443-51.649 9.784-76.195 18.925-14.090 5.286-29.455 6.434-44.224 3.289l-5.478-1.372c-12.634-3.648-24.191-10.401-33.588-19.678l-24.724-24.635-7.205 4.493c-52.101 33.612-96.461 77.892-130.134 129.898l-4.535 7.226 24.63 24.561c10.704 10.805 18.023 24.338 21.173 39.081 3.15 14.745 2 30.081-3.314 44.192-9.139 24.446-15.49 49.896-18.915 75.816-2.71 19.144-12.203 36.47-26.737 48.946-14.532 12.475-33.113 19.251-52.28 19.070zM283.768 712.186h86.148c8.923 0.083 17.371-2.997 23.978-8.669s10.921-13.546 12.141-22.158c3.823-28.938 10.962-57.546 21.255-85.080 2.434-6.463 2.957-13.433 1.525-20.136-1.432-6.701-4.759-12.853-9.585-17.725l-36.396-36.329c-6.858-6.845-8.288-17.421-3.494-25.836 42.808-75.147 105.144-137.369 180.429-180.102 8.431-4.785 19.025-3.358 25.883 3.488l36.481 36.415c4.796 4.734 10.959 8.055 17.67 9.482 6.715 1.43 13.699 0.908 20.128-1.504 27.638-10.293 56.298-17.42 85.48-21.261 8.529-1.201 16.493-5.586 22.19-12.296 5.691-6.706 8.716-15.268 8.497-24.056l-0.007-86.554c0.018-5.078-1.002-10.016-3.005-14.586-2.004-4.578-4.942-8.684-8.628-12.060-3.682-3.371-8.034-5.941-12.767-7.539-4.741-1.6-9.759-2.194-14.735-1.744-84.655 9.187-166.346 38.194-238.118 84.652-66.902 42.436-123.482 98.913-165.889 165.528-46.808 72.126-75.875 154.064-84.946 239.333-0.416 4.62 0.174 9.615 1.766 14.331 1.591 4.715 4.148 9.048 7.509 12.723s7.451 6.611 12.011 8.622c4.56 2.010 9.491 3.052 14.481 3.060z" />
<glyph unicode="&#xe92b;" glyph-name="m44-location2" d="M512 755.2c67.894 0 133.009-26.857 181.020-74.662 48.009-47.805 74.98-112.643 74.98-180.249 0-86.129-46.57-171.145-123.55-252.056-26.527-27.882-54.89-53.3-83.26-75.794-4.971-3.941-9.767-7.653-14.361-11.127v0l-13.145-9.702-10.76-7.517c-6.615-4.391-15.232-4.391-21.847 0v0l-10.76 7.517-13.145 9.702c-4.594 3.474-9.391 7.186-14.361 11.127-28.37 22.494-56.733 47.913-83.26 75.794-76.98 80.911-123.55 165.927-123.55 252.056 0 67.607 26.971 132.444 74.981 180.249s113.124 74.662 181.019 74.662zM512 715.983c-57.45 0-112.547-22.725-153.17-63.175s-63.445-95.313-63.445-152.518c0-74.007 42.045-150.762 112.757-225.085 25.165-26.45 52.187-50.666 79.202-72.087v0l13.62-10.553c4.348-3.289 8.495-6.346 12.412-9.162v0l-1.376 1.007 4.669 3.398 8.559 6.422 11.429 8.889c27.015 21.42 54.037 45.636 79.202 72.087 70.712 74.323 112.757 151.078 112.757 225.085 0 57.206-22.822 112.068-63.444 152.518-40.625 40.451-95.723 63.176-153.172 63.176zM512 598.332c54.38 0 98.462-43.895 98.462-98.043s-44.082-98.043-98.462-98.043c-54.379 0-98.462 43.894-98.462 98.043s44.083 98.043 98.462 98.043zM512 559.115c-32.627 0-59.077-26.337-59.077-58.826s26.449-58.826 59.077-58.826c32.628 0 59.077 26.336 59.077 58.826s-26.449 58.826-59.077 58.826z" />
<glyph unicode="&#xe92c;" glyph-name="m45-search2" d="M482.855 755.2c153.566 0 278.055-124.49 278.055-278.056 0-68.272-24.605-130.797-65.432-179.191l116.8-116.814c9.228-9.228 9.228-24.191 0-33.419-8.389-8.389-21.518-9.152-30.769-2.288l-2.65 2.288-116.814 116.799c-48.394-40.826-110.919-65.432-179.191-65.432-153.566 0-278.055 124.49-278.055 278.055s124.49 278.056 278.055 278.056zM482.855 707.938c-127.464 0-230.794-103.33-230.794-230.794s103.33-230.794 230.794-230.794c127.464 0 230.794 103.33 230.794 230.794s-103.33 230.794-230.794 230.794z" />
<glyph unicode="&#xe92d;" glyph-name="m46-checkcircle" d="M512 755.2c169.662 0 307.2-137.538 307.2-307.2s-137.538-307.2-307.2-307.2c-169.662 0-307.2 137.538-307.2 307.2s137.538 307.2 307.2 307.2zM512 708.733c-143.999 0-260.733-116.734-260.733-260.733s116.734-260.733 260.733-260.733c143.999 0 260.733 116.734 260.733 260.733s-116.734 260.733-260.733 260.733zM652.32 541.806c8.62-8.62 9.051-22.327 1.293-31.455l-1.293-1.402-170.38-170.38c-8.62-8.62-22.327-9.051-31.455-1.293l-1.402 1.293-77.445 77.445c-9.073 9.073-9.073 23.784 0 32.857 8.62 8.62 22.327 9.051 31.455 1.293l1.402-1.293 61.016-61.008 153.952 153.942c9.073 9.073 23.784 9.073 32.857 0z" />
<glyph unicode="&#xe92e;" glyph-name="m47-crosscircle" d="M508.587 746.822c163.149 0 295.408-132.259 295.408-295.409s-132.258-295.408-295.408-295.408c-163.149 0-295.409 132.259-295.409 295.408s132.259 295.409 295.409 295.409zM508.587 702.138c-138.472 0-250.725-112.254-250.725-250.725s112.254-250.724 250.725-250.724c138.471 0 250.724 112.253 250.724 250.724s-112.253 250.725-250.724 250.725zM606.308 549.138c8.289-8.289 8.703-21.47 1.243-30.248l-1.243-1.348-66.126-66.124 66.126-66.12c8.725-8.725 8.725-22.871 0-31.596-8.289-8.289-21.47-8.703-30.248-1.243l-1.348 1.243-66.12 66.126-66.124-66.126c-8.725-8.725-22.871-8.725-31.596 0-8.289 8.289-8.703 21.47-1.243 30.248l1.243 1.348 66.13 66.12-66.13 66.124c-8.725 8.725-8.725 22.871 0 31.596 8.289 8.289 21.47 8.703 30.248 1.243l1.348-1.243 66.124-66.129 66.12 66.129c8.725 8.725 22.871 8.725 31.596 0z" />
<glyph unicode="&#xe92f;" glyph-name="m48-quote2" d="M424.499 673.28l48.562-85.921c-49.4-13.851-84.899-33.117-106.333-57.796-21.518-24.68-32.821-57.585-33.994-98.578h119.981v-208.264h-247.915v148.92c0 60.257 6.28 107.79 19.006 142.664 12.643 34.805 36.002 66.094 70.163 93.726 34.077 27.703 77.614 49.429 130.53 65.25zM772.206 673.28l46.994-85.921c-47.805-13.851-82.161-33.117-102.902-57.796-20.825-24.68-31.762-57.585-32.897-98.578h116.109v-208.264h-239.915v148.92c0 60.257 6.077 107.79 18.393 142.664 12.234 34.805 34.84 66.094 67.899 93.726 32.977 27.703 75.109 49.429 126.319 65.25z" />
<glyph unicode="&#xe930;" glyph-name="m49-calendar" d="M674.709 451.11c39.904 0 76.013-16.216 102.182-42.465 26.139-26.214 42.309-62.427 42.309-102.449 0-40.024-16.17-76.236-42.309-102.484-26.169-26.216-62.277-42.432-102.182-42.432s-76.013 16.216-102.152 42.432c-26.169 26.248-42.341 62.46-42.341 102.484 0 40.022 16.172 76.236 42.341 102.449 26.139 26.248 62.246 42.465 102.152 42.465zM272.987 522.688h61.596c7.045 0 12.792-5.764 12.792-12.831v-61.777c0-7.066-5.747-12.83-12.792-12.83h-61.596c-7.047 0-12.794 5.764-12.794 12.83v61.777c0 7.067 5.747 12.831 12.794 12.831zM496.478 397.018h27.632c-15.747-26.214-24.483-56.273-25.068-87.436h-2.565c-7.047 0-12.791 5.764-12.791 12.83v61.775c0 7.068 5.746 12.83 12.791 12.83zM384.717 397.018h61.629c7.047 0 12.793-5.762 12.793-12.83v-61.775c0-7.066-5.748-12.83-12.793-12.83h-61.629c-7.014 0-12.761 5.764-12.761 12.83v61.775c0 7.068 5.747 12.83 12.761 12.83zM608.242 522.688h61.595c7.047 0 12.795-5.764 12.795-12.831v-27.615c-2.631 0.099-5.263 0.163-7.923 0.163-27.862 0-54.939-6.577-79.26-18.888v46.339c0 7.067 5.746 12.831 12.793 12.831v0.002zM496.478 522.688h61.629c7.013 0 12.761-5.764 12.761-12.831v-61.483c-5.489-4.040-10.747-8.434-15.813-13.124h-58.577c-7.047 0-12.791 5.764-12.791 12.83v61.777c0 7.067 5.746 12.831 12.791 12.831zM384.717 522.688h61.629c7.047 0 12.793-5.764 12.793-12.831v-61.777c0-7.066-5.748-12.83-12.793-12.83h-61.629c-7.014 0-12.761 5.764-12.761 12.83v61.777c0 7.067 5.747 12.831 12.761 12.831zM272.987 397.018h61.596c7.045 0 12.792-5.762 12.792-12.83v-61.775c0-7.066-5.747-12.83-12.792-12.83h-61.596c-7.047 0-12.794 5.764-12.794 12.83v61.775c0 7.068 5.747 12.83 12.794 12.83zM252.694 682.128h65.688v-29.374c0-21.201 17.338-38.558 38.477-38.558 21.17 0 38.477 17.358 38.477 38.558v29.374h152.154v-29.374c0-21.201 17.308-38.558 38.477-38.558 21.14 0 38.477 17.358 38.477 38.558v29.374h65.686c26.335 0 47.894-21.623 47.894-48.034v-163.476c-9.416 3.645-19.156 6.481-29.127 8.466v64.283c0 12.505-10.163 22.698-22.596 22.698h-429.776c-12.437 0-22.598-10.193-22.598-22.698v-258.308c0-10.356 8.442-18.822 18.767-18.822h250.864c2.307-10.032 5.489-19.8 9.514-29.212h-260.378c-26.332 0-47.894 21.625-47.894 48.034v349.034c0 26.409 21.56 48.034 47.894 48.034zM356.857 629.568c12.728 0 23.152 10.421 23.152 23.219v58.713c0 12.767-10.422 23.22-23.152 23.22-12.728 0-23.152-10.453-23.152-23.22v-58.715c0-12.798 10.424-23.219 23.152-23.219v0.002zM585.967 629.568c12.729 0 23.152 10.421 23.152 23.219v58.713c0 12.767-10.422 23.22-23.152 23.22s-23.152-10.453-23.152-23.22v-58.715c0-12.798 10.422-23.219 23.152-23.219v0.002zM674.709 395.618c8.995 0 16.366-7.36 16.366-16.379v-59.659h44.71c8.995 0 16.366-7.392 16.366-16.411 0-9.022-7.371-16.414-16.366-16.414h-61.076c-8.993 0-16.364 7.392-16.364 16.414v76.070c0 9.020 7.371 16.379 16.364 16.379v0zM752.638 384.351c-19.936 19.997-47.504 32.371-77.929 32.371-30.426 0-57.993-12.373-77.929-32.371-19.938-19.993-32.276-47.641-32.276-78.155s12.338-58.162 32.276-78.157c19.936-19.997 47.502-32.371 77.929-32.371 30.424 0 57.993 12.373 77.929 32.371 19.936 19.995 32.274 47.644 32.274 78.157s-12.338 58.162-32.274 78.155z" />
<glyph unicode="&#xe931;" glyph-name="m50-sort2" d="M603.024 311.467c18.851 0 34.133-15.282 34.133-34.133 0-17.505-13.177-31.932-30.153-33.904l-3.981-0.23h-182.046c-18.851 0-34.133 15.282-34.133 34.133 0 17.505 13.177 31.932 30.153 33.904l3.981 0.23h182.046zM694.044 482.133c18.851 0 34.133-15.282 34.133-34.133 0-17.505-13.177-31.932-30.153-33.904l-3.981-0.23h-364.088c-18.851 0-34.133 15.282-34.133 34.133 0 17.505 13.177 31.932 30.153 33.904l3.981 0.23h364.088zM785.067 652.8c18.851 0 34.133-15.282 34.133-34.133 0-17.505-13.177-31.932-30.153-33.904l-3.981-0.23h-546.133c-18.851 0-34.133 15.282-34.133 34.133 0 17.505 13.177 31.932 30.153 33.904l3.981 0.23h546.133z" />
<glyph unicode="&#xe932;" glyph-name="m51-sort2" d="M232.776 734.72l-3.037-0.156c-21.8-2.264-32.964-28.678-18.284-46.185l216.777-258.5v-173.849c0-10.666 5.975-20.416 15.435-25.185l111.69-56.316 2.955-1.289c17.849-6.618 37.455 6.644 37.455 26.475v230.193l216.777 258.472c15.348 18.302 2.448 46.341-21.321 46.341h-558.448zM731.023 678.404l-184.499-220.036-2.323-3.204c-2.781-4.465-4.278-9.653-4.278-14.979v-194.911l-55.845 28.158v166.753l-0.277 3.959c-0.735 5.22-2.914 10.156-6.324 14.223l-184.527 220.036h438.074z" />
<glyph unicode="&#xe933;" glyph-name="m51-sort3" d="M232.776 734.72l-3.037-0.156c-21.8-2.264-32.964-28.678-18.284-46.185l216.777-258.5v-173.849c0-10.666 5.975-20.416 15.435-25.185l111.69-56.316 2.955-1.289c17.849-6.618 37.455 6.644 37.455 26.475v230.193l216.777 258.472c15.348 18.302 2.448 46.341-21.321 46.341h-558.448zM731.023 678.404l-184.499-220.036-2.323-3.204c-2.781-4.465-4.278-9.653-4.278-14.979v-194.911l-55.845 28.158v166.753l-0.277 3.959c-0.735 5.22-2.914 10.156-6.324 14.223l-184.527 220.036h438.074z" />
<glyph unicode="&#xe934;" glyph-name="m52-x" d="M762.673 657.246l-155.074-212.466 95.765-122.508 83.887-108.302 1.229-3.625v-69.545l-13.682 22.426-11.278 15.043-206.798 265.603 5.355 7.549 120.97 165.804h-66.096l-95.922-124.196-78.566 97.471-1.323 3.746v62.993l79.584-98.214 74.065 95.88 4.78 2.342h163.103zM245.76 755.2l10.837-14.276 226.391-294.997-131.069-171.388h74.34l93.941 125.185 60.359-73.247 1.364-3.796v-61.768l-60.257 73.073-74.624-99.49h-176.922l161.538 211.314-184.663 240.779-1.234 3.632v64.98z" />
<glyph unicode="&#xe935;" glyph-name="m53-circle" d="M512.019 755.2c-169.678 0-307.219-137.538-307.219-307.2s137.542-307.2 307.219-307.2c169.647 0 307.181 137.544 307.181 307.2s-137.534 307.2-307.181 307.2zM512.019 702.537c140.561 0 254.518-113.965 254.518-254.537s-113.957-254.537-254.518-254.537c-140.593 0-254.556 113.96-254.556 254.537s113.963 254.537 254.556 254.537z" />
</font>
</defs>
</svg>
